Download Soorma [2018][Hindi Movie] pDVDRip V2 700MB-[DLXXL].mkv Torrent | 1337x

Soorma [2018][Hindi Movie] pDVDRip V2 700MB-[DLXXL].mkv

  • Category Movies
  • Type Mp4
  • Language Hindi
  • Total size 700.5 MB
  • Uploaded By DLXXLin
  • Downloads 7036
  • Last checked 3 weeks ago
  • Date uploaded 4 weeks ago
  • Seeders 641
  • Leechers 1700

Infohash : 8A0812EC706E8EEF78F2E2BCCE898EADA7350158




Images:
https://imghostr.co/Hindi/Soorma/1.html
https://imghostr.co/Hindi/Soorma/2.html
https://imghostr.co/Hindi/Soorma/3.html
https://imghostr.co/Hindi/Soorma/4.html
https://imghostr.co/Hindi/Soorma/5.html

Code:


Format : Matroska
Format version : Version 4 / Version 2
File size : 701 MiB
Duration : 1 h 54 min
Overall bit rate : 853 kb/s
Encoded date : UTC 2018-07-13 18:10:51
Writing application : mkvmerge v7.1.0 ('Good Love') 32bit built on Jul 27 2014 12:59:18
Writing library : libebml v1.3.0 + libmatroska v1.4.1
FileExtension_Invalid : mkv mk3d mka mks

Video
ID : 1
Format : AVC
Format/Info : Advanced Video Codec
Format profile : [email protected]
Format settings : CABAC / 4 Ref Frames
Format settings, CABAC : Yes
Format settings, RefFrames : 4 frames
Codec ID : V_MPEG4/ISO/AVC
Duration : 1 h 54 min
Bit rate : 738 kb/s
Width : 720 pixels
Height : 432 pixels
Display aspect ratio : 16:9
Frame rate mode : Constant
Frame rate : 25.000 FPS
Color space : YUV
Chroma subsampling : 4:2:0
Bit depth : 8 bits
Scan type : Progressive
Bits/(Pixel*Frame) : 0.095
Stream size : 606 MiB (87%)
Title : www.MovieRulz.pl
Writing library : x264 core 155 r2901 7d0ff22
Encoding settings : cabac=1 / ref=2 / deblock=1:0:0 / analyse=0x1:0x111 / me=hex / subme=6 / psy=1 / psy_rd=1.00:0.00 / mixed_ref=1 / me_range=16 / chroma_me=1 / trellis=1 / 8x8dct=0 / cqm=0 / deadzone=21,11 / fast_pskip=1 / chroma_qp_offset=-2 / threads=12 / lookahead_threads=2 / sliced_threads=0 / nr=0 / decimate=1 / interlaced=0 / bluray_compat=0 / constrained_intra=0 / bframes=3 / b_pyramid=2 / b_adapt=1 / b_bias=0 / direct=1 / weightb=1 / open_gop=0 / weightp=1 / keyint=250 / keyint_min=25 / scenecut=40 / intra_refresh=0 / rc_lookahead=30 / rc=2pass / mbtree=1 / bitrate=738 / ratetol=1.0 / qcomp=0.60 / qpmin=0 / qpmax=69 / qpstep=4 / cplxblur=20.0 / qblur=0.5 / vbv_maxrate=14000 / vbv_bufsize=14000 / nal_hrd=none / filler=0 / ip_ratio=1.40 / aq=1:1.00
Language : Hindi
Default : Yes
Forced : No
Color range : Limited
Color primaries : BT.601 PAL
Transfer characteristics : BT.709
Matrix coefficients : BT.601

Audio
ID : 2
Format : AAC
Format/Info : Advanced Audio Codec
Format profile : LC
Codec ID : A_AAC-2
Duration : 1 h 54 min
Bit rate : 112 kb/s
Channel(s) : 2 channels
Channel positions : Front: L R
Sampling rate : 48.0 kHz
Frame rate : 46.875 FPS (1024 SPF)
Compression mode : Lossy
Delay relative to video : -21 ms
Stream size : 92.4 MiB (13%)
Language : Hindi
Default : Yes
Forced : No

https://extraimage.net/images/2018/07/15/c25c475c26d630aa0c1b77dccb01c983.png
https://extraimage.net/images/2018/07/15/846939993b49cb95872baae330523456.png
https://extraimage.net/images/2018/07/15/7eb45f5139c0e6191db1096f1441e053.png
https://extraimage.net/images/2018/07/15/5d4c23accb9ce88e46961bd479d288da.png
https://extraimage.net/images/2018/07/15/fb7091d0e079ff658eac29366f0819d9.png



Files:

  • Soorma [2018][Hindi Movie] pDVDRip V2 700MB-[DLXXL].mkv (700.5 MB)

There are currently no comments. Feel free to leave one :)

Code:

  • udp://tracker.coppersurfer.tk:6969/announce
  • udp://tracker.opentrackr.org:1337/announce
  • udp://9.rarbg.me:2710/announce
  • udp://tracker.torrent.eu.org:451/announce
  • udp://open.stealth.si:80/announce
  • udp://public.popcorn-tracker.org:6969/announce
  • udp://p4p.arenabg.ch:1337/announce
  • udp://tracker.zer0day.to:1337/announce
  • udp://tracker.pirateparty.gr:6969/announce
  • udp://tracker.leechers-paradise.org:6969/announce
  • udp://tracker.tiny-vps.com:6969/announce
  • udp://bt.firebit.co.uk:6969/announce
  • udp://inferno.demonoid.pw:3397/announce
  • udp://shadowshq.yi.org:6969/announce
  • udp://9.rarbg.to:2780/announce